<?xml version="1.0" standalone="no"?>
<!DOCTYPE svg PUBLIC "-//W3C//DTD SVG 1.1//EN" "http://www.w3.org/Graphics/SVG/1.1/DTD/svg11.dtd" >
<svg xmlns="http://www.w3.org/2000/svg">
<metadata>Generated by IcoMoon</metadata>
<defs>
<font id="able" horiz-adv-x="512">
<font-face units-per-em="512" ascent="480" descent="-32" />
<missing-glyph horiz-adv-x="512" />
<glyph unicode="&#x20;" d="" horiz-adv-x="256" />
<glyph unicode="&#xe600;" d="M259.84 475.42h15.961c1.778 0 3.24-2.925 3.24-6.479v-499.038c0-3.555-1.463-6.48-3.24-6.48h-31.922c-1.776 0-3.238 2.925-3.238 6.481v499.038c0 3.554 1.463 6.479 3.238 6.479h15.961z" />
<glyph unicode="&#xe601;" d="M0.852 387.234h510.297v-331.662h-510.297v331.662zM463.297 222.859c-0.645 57.95-3.163 83.214-19.010 101.059-2.856 3.863-8.231 6.040-12.685 8.8-15.51 9.873-88.699 13.459-173.62 13.459-84.922 0-161.613-3.587-176.815-13.459-4.73-2.76-10.135-4.936-13.299-8.8-15.541-17.844-17.752-43.109-18.704-101.059 0.952-57.981 3.163-83.245 18.704-101.089 3.163-4.11 8.569-6.040 13.299-8.8 15.202-10.149 91.892-13.461 176.815-14.012 84.921 0.551 158.11 3.863 173.62 14.012 4.454 2.759 9.829 4.69 12.685 8.8 15.849 17.844 18.365 43.108 19.010 101.089v0 0zM248.036 242.403c-4.296 45.321-32.085 72.011-81.808 72.011-45.398 0-81.103-35.515-81.103-92.602 0-57.331 32.544-93.091 86.317-93.091 42.913 0 72.974 27.425 77.697 73.021h-51.287c-2.024-16.915-10.153-29.907-27.33-29.907-27.115 0-32.084 23.287-32.084 48.017 0 34.044 11.32 51.449 30.060 51.449 16.716 0 27.33-10.541 28.925-28.897h50.612zM425.146 242.403c-4.263 45.321-32.054 72.011-81.777 72.011-45.397 0-81.103-35.515-81.103-92.602 0-57.331 32.545-93.091 86.316-93.091 42.913 0 72.974 27.425 77.697 73.021h-51.287c-2.024-16.915-10.153-29.907-27.33-29.907-27.115 0-32.084 23.287-32.084 48.017 0 34.044 11.288 51.449 30.060 51.449 16.716 0 27.33-10.541 28.925-28.897h50.582z" />
<glyph unicode="&#xe602;" d="M451.147 388.6h-39.813c44.909-44.445 70.726-105.126 70.726-168.242 0-56.080-20.179-109.726-56.051-152.141h37.98c31.932 43.634 49.799 97.077 49.799 152.141-0.001 61.898-22.693 121.7-62.642 168.242v0zM369.892 388.6h-39.678c44.773-44.445 70.589-105.126 70.589-168.242 0-56.080-20.179-109.726-55.982-152.141h37.776c32.204 43.634 49.937 97.077 49.937 152.141-0.002 61.898-22.627 121.7-62.642 168.242v0zM288.499 388.6h-39.475c44.841-44.445 70.454-105.126 70.454-168.242 0-56.080-20.246-109.726-55.846-152.141h37.706c32.204 43.634 49.8 97.077 49.8 152.141 0.002 61.898-22.418 121.7-62.638 168.242v0zM262.137 227.664c0-88.552-72.357-160.395-161.359-160.395v-0.27h-98.99v321.398h99.737c89.002 0 160.612-71.843 160.612-160.732v0zM177.755 227.664c0 47.151-38.183 85.44-85.741 85.44h-22.421v-171.15h22.421c47.558 0 85.741 38.355 85.741 85.71v0z" />
<glyph unicode="&#xe603;" d="M288 400v-160l160 160v-352l-160 160v-160l-176 176z" />
<glyph unicode="&#xe604;" d="M256 48v160l-160-160v352l160-160v160l176-176z" />
<glyph unicode="&#xe605;" d="M359.765 64.235c-6.143 0-12.284 2.343-16.971 7.029-9.372 9.372-9.372 24.568 0 33.941 65.503 65.503 65.503 172.085 0 237.588-9.372 9.373-9.372 24.569 0 33.941 9.372 9.371 24.569 9.372 33.941 0 40.797-40.796 63.265-95.038 63.265-152.734s-22.468-111.938-63.265-152.735c-4.686-4.687-10.828-7.030-16.97-7.030zM274.51 109.49c-6.143 0-12.284 2.343-16.971 7.029-9.373 9.373-9.373 24.568 0 33.941 40.55 40.55 40.55 106.529 0 147.078-9.373 9.373-9.373 24.569 0 33.941s24.568 9.372 33.941 0c59.265-59.265 59.265-155.696 0-214.961-4.686-4.685-10.828-7.028-16.97-7.028zM200.666 440.666c12.834 12.834 23.334 8.484 23.334-9.666v-414c0-18.15-10.5-22.499-23.334-9.665l-120.666 120.665h-80v192h80l120.666 120.666z" />
<glyph unicode="&#xe606;" d="M200.666 440.666c12.834 12.834 23.334 8.484 23.334-9.666v-414c0-18.15-10.5-22.499-23.334-9.665l-120.666 120.665h-80v192h80l120.666 120.666zM480 170.426v-42.426h-42.426l-53.574 53.574-53.574-53.574h-42.426v42.426l53.574 53.574-53.574 53.574v42.426h42.426l53.574-53.574 53.574 53.574h42.426v-42.426l-53.574-53.574z" />
<glyph unicode="&#xe607;" d="M214.082 448.041c5.988 0 9.918-5.939 9.919-17.041v-414c0-11.103-3.928-17.041-9.918-17.041-3.802 0-8.434 2.394-13.417 7.376l-120.666 120.665h-80v192h80l120.666 120.666c4.983 4.983 9.614 7.375 13.416 7.375zM512 192h-96v-96h-64v96h-96v64h96v96h64v-96h96z" />
<glyph unicode="&#xe608;" d="M214.082 448.041c5.988 0 9.918-5.939 9.919-17.041v-414c0-11.103-3.928-17.041-9.918-17.041-3.802 0-8.434 2.394-13.417 7.376l-120.666 120.665h-80v192h80l120.666 120.666c4.983 4.983 9.614 7.375 13.416 7.375zM256 256h256v-64h-256z" />
<glyph unicode="&#xe609;" d="M128 416v-448l160 160 160-160v448zM384 480h-320v-448l32 32v384h288z" />
<glyph unicode="&#xe60a;" d="M280.425 216.135c9.675-7.728 14.575-30.783 14.449-30.531 17.841-5.654 29.087-17.465 29.087-17.465 27.39 15.265 28.019 8.355 39.893 17.465 9.8 6.723 9.361 8.795 14.512 26.825 4.775 14.637-12.188 13.256-26.135 39.893-24.313-9.172-37.442-5.025-45.672-4.272-3.706 0.502-3.079-14.387-26.135-31.914zM368.88 39.791c-3.393-4.649-5.026-5.591-9.298-11.623-7.161-9.235 1.947-23.182 6.471-20.983 5.277 1.947 8.731 12.502 14.512 15.957 2.952 1.57 10.805 13.13 18.156 20.983 5.402 6.094 9.298 8.795 14.449 15.203 8.731 10.805 10.555 19.035 18.156 30.531 4.712 6.031 7.978 7.853 12.313 15.203 22.68 42.971 16.082 62.257 37.757 92.915 6.659 9.046 14.135 11.308 24.689 16.711 9.8 71.491-22.741 111.51-22.49 111.635-27.327-15.957-42.091-22.49-70.424-20.983-10.68 0.126-16.272 4.649-26.825 3.706-9.863-0.376-14.889-4.083-24.689-7.413-15.077-4.649-23.307-8.795-39.139-13.695-10.051-2.827-16.459-2.952-26.888-6.534-8.921-3.769-4.649-0.753-10.931-7.978-8.104-8.921-6.094-15.957-13.695-31.286-9.486-20.103-8.355-22.805-2.952-25.255-3.581-10.303-4.461-17.214-3.581-28.333 1.005-8.481-2.576-14.387 6.534-21.109 12.376-9.235 38.385-30.846 44.981-31.16 9.989 0.315 38.95-0.753 53.65 9.423 3.329 2.073 4.272 4.147 1.445-3.706-0.565-0.942-36.688-29.087-40.584-28.962-45.923-1.445-30.531-4.021-33.359-2.952-2.325 0-24.438 27.014-37.819 17.465-5.025-3.079-7.351-6.031-9.298-11.56 1.696-3.519 9.8-9.173 17.276-13.821 10.805-6.911 11.81-14.135 22.553-16.711 13.13-2.952 27.139-1.005 35.495-2.073 3.204-0.88 32.166 7.601 50.195 17.276 16.648 8.607-22.993-16.586-32.668-28.962-29.212-9.173-20.983-9.549-34.867-12.376-12.878-2.952-12.25-2.199-21.046-5.026-9.11-2.199-16.586-14.637-7.978-21.109 5.151-4.272 21.171 1.696 37.002 2.199 7.036 0.126 35.62 13.255 42.091 16.711 16.208 8.669 28.144 20.731 37.694 27.579 13.255 9.235-14.952-25.38-26.888-39.893zM226.686 229.139c-9.674 7.978-14.575 31.034-14.449 31.16-17.841 5.277-29.088 17.088-29.088 16.711-27.391-14.889-28.144-7.978-39.893-16.711-9.925-7.099-9.361-9.298-14.512-26.762-4.775-15.203 12.061-13.695 26.135-39.955 24.313 8.795 37.442 4.649 45.672 3.644 3.706-0.251 3.078 14.637 26.135 31.913zM138.232 405.481c3.393 4.899 5.025 5.843 9.423 11.623 6.911 9.487-2.073 23.433-6.47 21.737-5.403-2.45-8.858-13.005-15.329-16.711-2.387-1.32-10.24-12.879-17.465-20.983-5.403-5.843-9.297-8.544-14.449-15.329-8.858-10.429-10.555-18.659-18.156-29.715-4.712-6.597-8.104-8.293-12.313-15.895-22.679-42.719-16.145-62.006-37.757-92.16-6.659-9.738-14.135-11.81-24.689-17.465-9.8-71.367 22.616-111.258 22.491-111.008 27.328 15.58 41.965 22.050 70.424 21.109 10.68-0.628 16.272-5.151 26.826-4.461 9.864 0.628 14.889 4.334 24.689 7.288 15.077 5.026 23.307 9.173 38.385 13.821 10.805 3.079 17.214 3.204 27.642 7.288 8.921 3.267 4.649 0.251 10.931 7.225 7.978 9.173 6.094 16.208 13.005 31.16 10.178 20.48 9.047 23.182 3.643 25.38 3.456 10.554 4.461 17.339 3.581 28.333-1.131 8.607 2.576 14.637-6.534 20.983-12.376 9.612-38.385 31.223-44.855 31.286-10.114-0.063-39.076 1.005-53.776-8.67-3.329-2.576-4.272-4.649-1.445 2.827 0.565 1.32 36.689 29.401 40.584 29.778 45.923 1.005 30.531 3.581 33.359 2.262 2.325 0.189 24.439-26.762 37.819-17.465 4.899 3.329 7.351 6.282 9.423 11.559-1.821 3.769-9.925 9.423-17.401 13.759-10.805 7.225-11.873 14.449-22.553 16.774-13.13 3.203-27.264 1.256-35.495 2.827-3.203 0.376-32.166-8.104-50.070-17.402-16.899-8.984 22.867 16.146 32.667 29.088 29.088 8.67 20.731 9.046 34.804 12.25 12.816 2.576 12.188 1.822 20.983 4.397 8.984 2.45 16.585 14.763 7.978 21.737-5.277 3.895-21.171-2.073-36.876-2.199-7.161-0.502-35.746-13.633-42.216-17.339-16.208-8.418-28.144-20.48-37.694-26.825-13.382-9.738 14.952 24.752 26.888 39.139z" />
<glyph unicode="&#xe60b;" d="M445.020 18.98c-6.143 0-12.284 2.343-16.971 7.029-9.372 9.373-9.372 24.568 0 33.941 43.819 43.821 67.952 102.080 67.952 164.050 0 61.969-24.133 120.229-67.952 164.049-9.372 9.373-9.372 24.569 0 33.941s24.569 9.372 33.941 0c52.885-52.886 82.011-123.2 82.011-197.99s-29.126-145.104-82.011-197.99c-4.686-4.687-10.828-7.030-16.97-7.030zM359.765 64.235c-6.143 0-12.284 2.343-16.971 7.029-9.372 9.372-9.372 24.568 0 33.941 65.503 65.503 65.503 172.085 0 237.588-9.372 9.373-9.372 24.569 0 33.941 9.372 9.371 24.569 9.372 33.941 0 40.797-40.796 63.265-95.038 63.265-152.734s-22.468-111.938-63.265-152.735c-4.686-4.687-10.828-7.030-16.97-7.030zM274.51 109.49c-6.143 0-12.284 2.343-16.971 7.029-9.373 9.373-9.373 24.568 0 33.941 40.55 40.55 40.55 106.529 0 147.078-9.373 9.373-9.373 24.569 0 33.941s24.568 9.372 33.941 0c59.265-59.265 59.265-155.696 0-214.961-4.686-4.685-10.828-7.028-16.97-7.028zM200.666 440.666c12.834 12.834 23.334 8.484 23.334-9.666v-414c0-18.15-10.5-22.499-23.334-9.665l-120.666 120.665h-80v192h80l120.666 120.666z" horiz-adv-x="544" />
<glyph unicode="&#xe60c;" d="M274.51 109.49c-6.143 0-12.284 2.343-16.971 7.029-9.373 9.373-9.373 24.568 0 33.941 40.55 40.55 40.55 106.529 0 147.078-9.373 9.373-9.373 24.569 0 33.941s24.568 9.372 33.941 0c59.265-59.265 59.265-155.696 0-214.961-4.686-4.685-10.828-7.028-16.97-7.028zM200.666 440.666c12.834 12.834 23.334 8.484 23.334-9.666v-414c0-18.15-10.5-22.499-23.334-9.665l-120.666 120.665h-80v192h80l120.666 120.666z" />
<glyph unicode="&#xe60d;" d="M466.895 174.875c-26.863 46.527-10.708 106.152 36.076 133.244l-50.313 87.146c-14.375-8.427-31.088-13.259-48.923-13.259-53.768 0-97.354 43.873-97.354 97.995h-100.629c0.133-16.705-4.037-33.641-12.979-49.126-26.862-46.528-86.578-62.351-133.431-35.379l-50.312-87.146c14.485-8.236 27.025-20.294 35.943-35.739 26.819-46.454 10.756-105.96-35.854-133.112l50.313-87.146c14.325 8.348 30.958 13.127 48.7 13.127 53.598 0 97.072-43.596 97.35-97.479h100.627c-0.043 16.537 4.136 33.285 12.983 48.609 26.818 46.453 86.388 62.297 133.207 35.506l50.313 87.145c-14.39 8.233-26.846 20.249-35.717 35.614zM256 120.334c-57.254 0-103.668 46.412-103.668 103.667 0 57.254 46.413 103.667 103.668 103.667s103.666-46.413 103.666-103.667c-0.001-57.255-46.412-103.667-103.666-103.667z" />
<glyph unicode="&#xf00d;" d="M31.428 97.714q0 11.428 8 19.428l84 84-84 84q-8 8-8 19.428t8 19.428l38.857 38.857q8 8 19.428 8t19.428-8l84-84 84 84q8 8 19.428 8t19.428-8l38.857-38.857q8-8 8-19.428t-8-19.428l-84-84 84-84q8-8 8-19.428t-8-19.428l-38.857-38.857q-8-8-19.428-8t-19.428 8l-84 84-84-84q-8-8-19.428-8t-19.428 8l-38.857 38.857q-8 8-8 19.428z" horiz-adv-x="403" />
<glyph unicode="&#xf04b;" d="M0 9.143v420.572q0 7.428 4.715 10.286t11.285-0.857l379.428-210.857q6.572-3.714 6.572-8.857t-6.572-8.857l-379.428-210.857q-6.572-3.714-11.286-0.857t-4.715 10.286z" horiz-adv-x="403" />
<glyph unicode="&#xf04c;" d="M0 18.286v402.286q0 7.428 5.428 12.857t12.857 5.428h146.286q7.428 0 12.857-5.428t5.429-12.857v-402.286q0-7.428-5.428-12.857t-12.857-5.428h-146.286q-7.428 0-12.857 5.428t-5.428 12.857zM256 18.286v402.286q0 7.428 5.428 12.857t12.857 5.428h146.286q7.428 0 12.857-5.428t5.428-12.857v-402.286q0-7.428-5.428-12.857t-12.857-5.428h-146.286q-7.428 0-12.857 5.428t-5.428 12.857z" />
<glyph unicode="&#xf04d;" d="M0 18.286v402.286q0 7.428 5.428 12.857t12.857 5.428h402.286q7.428 0 12.857-5.428t5.428-12.857v-402.286q0-7.428-5.428-12.857t-12.857-5.428h-402.286q-7.428 0-12.857 5.428t-5.428 12.857z" />
<glyph unicode="&#xf065;" d="M0 18.286v128q0 7.428 5.428 12.857t12.857 5.428 12.857-5.428l41.143-41.143 94.857 94.857q2.857 2.857 6.572 2.857t6.572-2.857l32.572-32.572q2.857-2.857 2.857-6.572t-2.857-6.572l-94.857-94.857 41.143-41.143q5.428-5.428 5.428-12.857t-5.428-12.857-12.857-5.428h-128q-7.428 0-12.857 5.428t-5.428 12.857zM223.143 265.143q0 3.714 2.857 6.572l94.857 94.857-41.143 41.143q-5.428 5.428-5.428 12.857t5.428 12.857 12.857 5.428h128q7.428 0 12.857-5.428t5.428-12.857v-128q0-7.428-5.428-12.857t-12.857-5.428-12.857 5.428l-41.143 41.143-94.857-94.857q-2.857-2.857-6.572-2.857t-6.572 2.857l-32.572 32.572q-2.857 2.857-2.857 6.572z" />
<glyph unicode="&#xf066;" d="M3.715 45.714q0 3.714 2.857 6.572l94.857 94.857-41.143 41.143q-5.428 5.428-5.428 12.857t5.428 12.857 12.857 5.428h128q7.428 0 12.857-5.428t5.429-12.857v-128q0-7.428-5.428-12.857t-12.857-5.428-12.857 5.428l-41.143 41.143-94.857-94.857q-2.857-2.857-6.572-2.857t-6.572 2.857l-32.572 32.572q-2.857 2.857-2.857 6.572zM219.429 237.714v128q0 7.428 5.429 12.857t12.857 5.429 12.857-5.429l41.143-41.143 94.857 94.857q2.857 2.857 6.572 2.857t6.572-2.857l32.572-32.572q2.857-2.857 2.857-6.571t-2.857-6.572l-94.857-94.857 41.143-41.143q5.428-5.428 5.428-12.857t-5.428-12.857-12.857-5.428h-128q-7.428 0-12.857 5.428t-5.429 12.857z" />
<glyph unicode="&#xf0dd;" d="M0 164.572q0 7.428 5.428 12.857t12.857 5.428h256q7.428 0 12.857-5.428t5.428-12.857-5.428-12.857l-128-128q-5.428-5.428-12.857-5.428t-12.857 5.428l-128 128q-5.428 5.428-5.428 12.857z" horiz-adv-x="293" />
<glyph unicode="&#xf0de;" d="M0 274.286q0 7.429 5.428 12.857l128 128q5.428 5.428 12.857 5.428t12.857-5.428l128-128q5.428-5.428 5.428-12.857t-5.428-12.857-12.857-5.428h-256q-7.428 0-12.857 5.428t-5.428 12.857z" horiz-adv-x="293" />
<glyph unicode="&#xf128;" d="M27.572 318.286q-0.715 4.286 1.572 8 45.715 76 132.571 76 22.857 0 46-8.857t41.714-23.715 30.286-36.428 11.714-45.285q0-15.428-4.428-28.857t-10-21.857-15.714-17-16.428-12.428-17.428-10.143q-11.714-6.572-19.572-18.572t-7.857-19.143q0-4.857-3.429-9.286t-8-4.428h-68.572q-4.285 0-7.285 5.286t-3 10.714v12.857q0 23.714 18.571 44.714t40.857 31q16.857 7.714 24 16t7.143 21.714q0 12-13.286 21.143t-30.714 9.143q-18.572 0-30.857-8.286-10-7.143-30.572-32.857-3.715-4.571-8.857-4.571-3.428 0-7.143 2.286l-46.857 35.714q-3.715 2.857-4.428 7.143zM109.715 48v68.572q0 4.572 3.428 8t8 3.428h68.571q4.572 0 8-3.428t3.429-8v-68.572q0-4.572-3.429-8t-8-3.428h-68.572q-4.572 0-8 3.428t-3.428 8z" horiz-adv-x="293" />
<glyph unicode="&#xf15c;" d="M0-9.143v457.143q0 11.428 8 19.428t19.428 8h228.572v-155.428q0-11.428 8-19.428t19.428-8h155.428v-301.714q0-11.428-8-19.428t-19.428-8h-384q-11.428 0-19.428 8t-8 19.428zM109.715 82.286q0-4 2.572-6.572t6.572-2.572h201.143q4 0 6.572 2.572t2.572 6.572v18.286q0 4-2.572 6.572t-6.572 2.572h-201.143q-4 0-6.572-2.572t-2.572-6.572v-18.286zM109.715 155.429q0-4 2.572-6.572t6.572-2.572h201.143q4 0 6.572 2.572t2.572 6.572v18.286q0 4-2.572 6.572t-6.572 2.572h-201.143q-4 0-6.572-2.572t-2.572-6.572v-18.286zM109.715 228.572q0-4 2.572-6.571t6.572-2.572h201.143q4 0 6.572 2.572t2.572 6.572v18.286q0 4-2.572 6.572t-6.572 2.571h-201.143q-4 0-6.572-2.571t-2.572-6.572v-18.286zM292.572 329.143v134.857q6.286-4 10.286-8l116.572-116.571q4-4 8-10.286h-134.857z" />
</font>
</defs>
</svg>
